#TITLE:Like whoa;
#SUBTITLE:;
#ARTIST:Aly & AJ;
#TITLETRANSLIT:;
#SUBTITLETRANSLIT:;
#ARTISTTRANSLIT:;
#CREDIT:Tony;
#BANNER:cdtitle.png;
#BACKGROUND:;
#LYRICSPATH:;
#CDTITLE:cdtitle.png;
#MUSIC:Like whoa - Aly AJ.mp3;
#OFFSET:-0.400;
#SAMPLESTART:78.000;
#SAMPLELENGTH:11.980;
#SELECTABLE:YES;
#BPMS:0.000=121.000,252.000=242.000,252.313=60.500,257.250=74.000,258.000=85.000,258.750=95.000,259.500=100.000,260.500=109.000,261.000=121.000,277.938=-2.080,278.125=121.000,289.938=-2.080,290.125=121.000,301.938=-2.080,302.125=121.000,313.938=-2.100,314.125=121.000,325.938=-2.100,326.125=121.000,337.938=-2.100,338.125=121.000,354.500=113.000;
#STOPS:357.938=1.180
;
#BGCHANGES:2.250=like whoa.avi=1.000=1=0=1,
99999=-nosongbg-=1.000=0=0=0 // don't automatically add -songbackground-
;
// cache tags:
#FIRSTBEAT:0.000;
#LASTBEAT:358.000;
#SONGFILENAME:Songs/Music V.I.P ^_^/Like whoa/Like whoa - Aly & AJ.sm;
#HASMUSIC:1;
#HASBANNER:1;
#MUSICLENGTH:150.831;
// end cache tags

//---------------dance-single - Blank----------------
#NOTES:
     dance-single:
     Blank:
     Hard:
     15:
     0.905,1.000,1.000,0.225,0.862,701.000,208.000,34.000,125.000,28.000:
1000
0100
0010
0001
,
1010
0010
1000
0101
,
0100
0010
0010
0101
,
0001
0100
0010
1100
,
0100
0210
1001
0310
,
0011
0010
0100
0010
1010
0100
0010
0100
,
0011
0100
0010
1000
1100
0100
0001
0010
,
0101
0010
0100
0010
1010
0001
0010
0100
,
0011
0001
0100
0010
1010
0100
0001
0100
,
1100
0010
1100
1000
0101
0010
1000
0100
,
1010
0001
0010
0100
0011
0001
0100
0010
,
1001
0100
1100
0010
0001
0010
0100
0010
,
1100
0000
0010
0000
0100
0001
0010
0001
2020
0000
0000
0000
0100
3030
0010
0000
,
1001
0010
1100
0010
0101
0010
0011
0010
,
1100
0010
1010
0100
0011
0010
0110
0010
,
1010
0100
0011
1000
0110
0001
0101
0010
,
1100
0010
1100
1000
0110
0010
0101
0010
,
1001
0100
1100
1000
0110
0001
0011
0010
,
1100
0010
0110
0001
1000
0010
1000
0010
,
1100
0010
0101
0010
0101
0010
1010
0100
,
1010
0000
0100
0000
0100
0000
1001
0100
0010
0100
1001
0000
0011
0000
0100
0010
,
1101
0000
1010
0100
0100
0000
0010
0001
0000
0000
0010
0000
1100
0000
0011
0000
,
0100
0000
0011
0100
0100
0000
0001
1000
0000
0000
1000
0000
1100
0000
0010
0000
,
0101
0000
0010
0000
0100
0000
0101
0000
0010
0000
0010
1000
0100
0010
0101
0000
,
1010
0000
0100
0000
0010
0000
0011
0000
0100
0000
1100
0010
0001
0100
1010
0000
,
1011
0000
0010
0010
0001
0000
0010
1000
0000
0000
1000
0000
1100
0000
0010
0000
,
0110
0000
1001
1001
0100
0000
0010
0001
0000
0000
0001
0000
0011
0000
1000
0000
,
1010
0000
0100
0000
0100
0000
1010
0000
0100
0000
1001
0010
0100
0010
1001
0000
,
0101
0000
0010
0000
0100
0000
0011
0000
1000
0000
1100
0010
1001
0010
1100
0000
,
0101
0000
0000
0100
0010
0000
1000
0000
0010
0000
0000
0001
1010
0000
1000
0000
,
0011
0000
0000
0000
0000
0000
0100
0000
1010
0000
0000
0000
0010
0000
0000
0000
0202
0000
0303
0M0M
0000
0000
0000
0000
0022
0000
0033
00MM
0100
0000
0000
0000
,
1100
0010
0100
0010
0101
0010
1100
0010
,
1001
0010
0011
0100
1100
0010
1010
0100
,
1100
1000
0101
0010
0011
0100
1100
0010
,
1001
0000
0010
0000
1100
0000
0010
0000
0110
0000
0001
0000
1010
0000
0010
0100
,
2000
0010
3011
0001
0100
0010
1010
0100
,
0011
0000
0001
0000
0100
0000
0010
0000
1010
0000
0010
0010
0002
0000
0100
0003
,
0011
0100
0110
0010
1001
0100
1001
0010
,
1001
0000
0100
0000
1011
1001
0101
0010
0100
1000
0110
0000
0101
0000
0010
0100
,
1011
0000
0010
0101
0101
0000
0010
1000
0000
0000
1000
0000
1100
0000
0010
0000
,
0101
0000
0100
1010
1010
0000
0001
0001
0000
0000
0001
0000
0011
0000
0001
0000
,
0101
0000
0010
0000
0100
0000
1010
0000
0100
0000
0010
0010
0001
0100
1010
0000
,
1100
0000
0010
0000
0100
0000
0101
0000
0010
0000
0011
0010
1100
0100
0011
0000
,
1101
0000
1010
1010
0100
0000
0010
0001
0000
0000
0001
0000
0011
0000
0010
0000
,
0101
0000
0011
0011
0110
0000
0010
0100
0000
0000
0010
0000
1100
0000
0010
0000
,
0101
0000
0010
0000
0100
0000
1010
0000
0001
0000
0010
0100
0010
0100
0010
0000
,
0011
0000
0001
0000
0100
0000
1010
0100
0001
0100
1010
0001
0100
1000
0101
0000
,
0100
0010
1000
0001
0100
0010
1000
0100
0011
0010
0100
0010
1001
0100
0010
1000
,
0101
0010
0100
1000
0101
0010
0100
1000
1001
0100
0010
0001
0110
0001
0010
1000
,
0110
1000
0001
0100
1001
0100
0010
0001
0011
1000
0010
0100
1011
0100
0010
0001
,
2010
0100
0010
0001
0010
0001
0010
0100
3021
0100
1000
0001
0100
0001
1000
0100
,
1032
0010
0100
1000
0100
0010
0100
0010
0213
1001
0010
0001
0011
1000
0001
1000
,
1320
0100
0001
0100
1001
0100
1000
0001
2130
0001
0010
0100
0011
0100
0001
0010
,
3102
0010
1000
0100
1010
0010
0100
1000
0113
1000
0010
0101
1000
0100
0010
0001
,
1101
0010
0100
1000
1101
0000
1100
0110
0011
0010
0001
0001
0101
0010
0001
0010
,
1011
0000
0001
0000
0100
0000
0010
0010
0001
0000
1000
0000
0100
0000
0100
0100
,
1000
0000
1000
0000
0100
0000
0100
0100
0010
0000
0010
0000
0010
0000
0010
0010
,
0001
0000
0001
0000
0001
0000
0001
0001
0010
0000
0001
0000
1000
0000
1000
1100
,
0100
0000
0100
0000
0100
0000
0100
0110
0010
0000
0010
0000
0010
0000
0010
0011
,
0001
0000
0010
0000
0100
0000
0101
0100
0010
0000
0001
0000
0001
0000
1001
0010
,
0010
0000
0100
0000
0100
0000
1010
0010
1000
0000
0001
0000
0001
0000
1010
1010
,
0100
0000
1000
0000
1000
0000
0101
0101
1010
0000
0100
0000
0010
0000
1010
0101
,
0101
0000
0100
0000
0010
0000
1010
1010
0101
0000
1000
0000
0011
1000
0100
0010
,
0200
0000
0000
0000
0001
1000
0010
0000
1000
0000
0010
0000
0000
1000
0010
0000
0001
0000
1000
0000
0300
0010
0100
0000
0001
0100
1000
0010
0100
0001
0010
0000
,
1000
0000
0000
0000
0002
0000
0000
0000
0000
0000
1000
0000
0100
0000
0000
0000
1000
0000
0000
0000
0010
0000
0000
0000
0000
0000
0100
0000
0000
1000
0000
0000
0000
0000
0000
1000
0000
0000
0000
0000
0100
0000
0000
0000
0000
0000
0000
0000
0000
0010
0000
0000
0000
0100
0000
0000
0000
0000
0000
1000
0000
0000
0000
0000
,
0000
0000
0000
1000
0000
0000
0000
0000
0100
0000
0000
0000
0000
0000
0000
0000
0010
0000
0000
0000
0100
0000
0000
0000
0010
0000
0000
0000
0100
0000
0000
0000
1013
0000
0000
0000
0000
0000
0000
0000
0100
0000
0000
0000
0100
0000
0000
0000
1000
0000
0000
0000
0000
0000
0000
0000
0010
0000
0000
0000
0001
0000
0000
0000
,
0000
0000
0010
0000
0101
0000
0100
0000
1110
0000
0101
0101
0010
0000
1000
0010
,
0000
0000
0100
0000
0010
0000
0100
0000
1110
0000
0010
0011
0001
0000
0010
0100
,
0000
0000
0100
0000
0110
0000
0010
0000
1011
0000
0100
0100
0010
0000
0010
0001
,
0000
0000
0000
0000
0100
0000
0000
0000
0001
0000
0000
0000
1000
0000
0000
0000
0100
0000
0000
0000
0010
0000
0000
0000
0100
0000
0000
0000
0001
0000
0000
0000
M002
M000
M000
M000
M000
M000
M000
M000
M000
M000
M000
M000
M000
M000
M000
M000
M003
0000
0000
0000
0000
0000
0000
0000
0000
0000
0000
0000
0000
0000
0000
0000
,
0000
0000
0000
0000
,
0000
0000
0000
0000
,
0000
0000
0000
0000
0000
0000
0000
0000
0000
0000
0000
0000
0000
0000
0000
0000
200M
0000
0000
0000
0000
0000
0000
0000
000M
0000
0000
0000
0000
0000
0000
0000
32MM
00M0
00M0
00M0
00M0
00M0
00M0
00M0
00M0
00M0
00M0
00M0
00M0
00M0
00M0
00M0
03M0
0000
0000
0000
0000
0000
0000
0000
0000
0000
0000
0000
0000
0000
0000
0000
,
0000
0000
0000
0000
,
0000
0000
0000
0000
,
0000
0000
0000
0000
0000
0000
0000
0000
0000
0000
0000
0000
0000
0000
0000
0000
0M20
0000
0000
0000
0000
0000
0000
0000
0M00
0000
0000
0000
0000
0000
0000
0000
2M3M
000M
000M
000M
000M
000M
000M
000M
000M
000M
000M
000M
000M
000M
000M
000M
300M
0000
0000
0000
0000
0000
0000
0000
0000
0000
0000
0000
0000
0000
0000
0000
,
0000
0000
0000
0000
,
0000
0000
0000
0000
,
0000
0000
0000
0000
0000
0000
0000
0000
0000
0000
0000
0000
0000
0000
0000
0000
M002
0000
0000
0000
0000
0000
0000
0000
M000
0000
0000
0000
0000
0000
0000
0000
M2M3
00M0
00M0
00M0
00M0
00M0
00M0
00M0
00M0
00M0
00M0
00M0
00M0
00M0
00M0
00M0
03M0
0000
0000
0000
0000
0000
0000
0000
0000
0000
0000
0000
0000
0000
0000
0000
,
0000
0000
0000
0000
,
0000
0000
0000
0000
,
0000
0000
0000
0000
0000
0000
0000
0000
0000
0000
0000
0000
0000
0000
0000
0000
0M20
0000
0000
0000
0000
0000
0000
0000
0M00
0000
0000
0000
0000
0000
0000
0000
MM32
M000
M000
M000
M000
M000
M000
M000
M000
M000
M000
M000
M000
M000
M000
M000
M003
0000
0000
0000
0000
0000
0000
0000
0000
0000
0000
0000
0000
0000
0000
0000
,
0000
0000
0000
0000
,
0000
0000
0000
0000
,
0000
0000
0000
0000
0000
0000
0000
0000
0000
0000
0000
0000
0000
0000
0000
0000
200M
0000
0000
0000
0000
0000
0000
0000
000M
0000
0000
0000
0000
0000
0000
0000
32MM
00M0
00M0
00M0
00M0
00M0
00M0
00M0
00M0
00M0
00M0
00M0
00M0
00M0
00M0
00M0
00M0
00M0
00M0
00M0
03M0
0000
0000
0000
0000
0000
0000
0000
0000
0000
0000
0000
,
0000
0000
0000
0000
,
0000
0000
0000
0000
,
0000
0000
0000
0000
0000
0000
0000
0000
0000
0000
0000
0000
0000
0000
0000
0000
0220
0000
0000
0000
0000
0000
0000
0000
0000
0000
0000
0000
0000
0000
0000
0000
0000
0000
0000
0000
0330
0000
0000
0000
0010
0000
0000
0000
0001
0000
0000
0000
1010
0000
0000
0000
0000
0000
0000
0100
0000
0000
0000
0000
0000
0000
0000
0000
,
2010
0000
0000
0001
0010
0000
0010
0001
0000
0000
0001
0000
3200
0000
0000
0000
,
0002
0000
0303
0000
;

//---------------dance-single - ----------------
#NOTES:
     dance-single:
     :
     Medium:
     1:
     0.000,0.000,0.000,0.000,0.000,0.000,0.000,0.000,0.000,0.000:
0000
0000
0000
0000
;
